Leer Más [+] | Watch Series | Notes on a Scandal (2006) 720p








Info

user posted image
ARROW
STAGIONE 5
WEB-DLMUX 1080p

.: Dati Serie :.

Nazione: Stati Uniti d’America
Anno: 2012 – in produzione
Genere: Azione, avventura, drammatico
Stagione: 5
Episodi: 23
Durata: 45 min circa
Lingua: ITA – ENG
Cast:
• Stephen Amell: Oliver Queen/Arrow/Green Arrow (Freccia Verde)
• Katie Cassidy: Laurel Lance/Black Canary
• Colin Donnell: Tommy Merlyn
• David Ramsey: John Diggle/Spartan
• Emily Bett Rickards: Felicity Smoak/Overwatch
• Manu Bennett: Slade Wilson/Deathstroke
• Colton Haynes: Roy Harper/Arsenal
• John Barrowman: Malcolm Merlyn/Arciere Oscuro
• Willa Holland: Thea Queen/Speedy
• Susanna Thompson: Moira Queen
• Paul Blackthorne: Det. Quentin Lance
• Echo Kellum: Curtis Holt
• Josh Segarra: Adrian Chase

Oliver Queen è ricco, viziato e – diciamolo – pure un po’ stronzetto. Non si cura di quello che vogliono gli altri, tanto meno si preoccupa di ferire le persone che gli stanno accanto.
Un incidente in barca e tutto cambia: Oliver viene dato per morto, ma riappare, misteriosamente, dopo 5 anni.
Non è più la stessa persona, ha una consapevolezza nuova, ha voglia di riscatto, di riparare gli errori commessi nella sua vita precendente.
La soluzione? Di giorno, continuerà a vestire i panni del miliardario dedito al lusso e al divertimento sfrenato. Ma, di notte, vestirà i panni di un supereroe, armato di arco e frecce, per combattere i criminali e il marcio che impera nella sua città.

Info File

Arrow.5x01.Retaggio.ITA.ENG.1080p.WEB-DLMux.H264-LittleLinX.mkv
Format : Matroska
Format version : Version 4 / Version 2
File size : 1.72 GiB
Duration : 40mn 38s
Overall bit rate : 6 062 Kbps
Encoded date : UTC 2017-01-04 01:29:44
Writing application : mkvmerge v7.6.0 ('Garden of Dreams') 64bit built on Feb 8 2015 15:12:28
Writing library : libebml v1.3.1 + libmatroska v1.4.2
DURATION : 00:40:38.240000000
NUMBER_OF_FRAMES : 76195
NUMBER_OF_BYTES : 58517760
_STATISTICS_WRITING_APP : mkvmerge v7.6.0 ('Garden of Dreams') 64bit built on Feb 8 2015 15:12:28
_STATISTICS_WRITING_DATE_UTC : 2017-01-04 01:29:44
_STATISTICS_TAGS : BPS DURATION NUMBER_OF_FRAMES NUMBER_OF_BYTES

Video
ID : 1
Format : AVC
Format/Info : Advanced Video Codec
Format profile : [email protected]
Format settings, CABAC : Yes
Format settings, ReFrames : 4 frames
Codec ID : V_MPEG4/ISO/AVC
Duration : 40mn 38s
Bit rate : 5 365 Kbps
Width : 1 916 pixels
Height : 1 076 pixels
Display aspect ratio : 16:9
Frame rate : 25.000 fps
Color space : YUV
Chroma subsampling : 4:2:0
Bit depth : 8 bits
Scan type : Progressive
Bits/(Pixel*Frame) : 0.104
Stream size : 1.52 GiB (89%)
Title : Arrow.S05E01.1080p.WEB-DL.DD5.1.H264-RARBG
Language : English
Default : Yes
Forced : No
Color primaries : BT.709-5, BT.1361, IEC 61966-2-4, SMPTE RP177
Transfer characteristics : BT.709-5, BT.1361
Matrix coefficients : BT.709-5, BT.1361, IEC 61966-2-4 709, SMPTE RP177

Audio #1
ID : 2
Format : AC-3
Format/Info : Audio Coding 3
Mode extension : CM (complete main)
Codec ID : A_AC3
Duration : 40mn 38s
Bit rate mode : Constant
Bit rate : 192 Kbps
Channel(s) : 2 channels
Channel positions : Front: L R
Sampling rate : 48.0 KHz
Bit depth : 16 bits
Compression mode : Lossy
Stream size : 55.8 MiB (3%)
Title : ITA
Language : Italian
Default : Yes
Forced : Yes

Audio #2
ID : 3
Format : AC-3
Format/Info : Audio Coding 3
Mode extension : CM (complete main)
Codec ID : A_AC3
Duration : 40mn 38s
Bit rate mode : Constant
Bit rate : 384 Kbps
Channel(s) : 6 channels
Channel positions : Front: L C R, Side: L R, LFE
Sampling rate : 48.0 KHz
Bit depth : 16 bits
Compression mode : Lossy
Stream size : 112 MiB (6%)
Title : ENG
Language : English
Default : No
Forced : No

Text #1
ID : 4
Format : UTF-8
Codec ID : S_TEXT/UTF8
Codec ID/Info : UTF-8 Plain Text
Title : ITA - Forced
Language : Italian
Default : Yes
Forced : Yes

Text #2
ID : 5
Format : UTF-8
Codec ID : S_TEXT/UTF8
Codec ID/Info : UTF-8 Plain Text
Language : Italian
Default : No
Forced : No

Text #3
ID : 6
Format : UTF-8
Codec ID : S_TEXT/UTF8
Codec ID/Info : UTF-8 Plain Text
Language : English
Default : No
Forced : No

Trackers

http://tracker.leechers-paradise.org:6969/scrape
http://tracker.tntvillage.scambioetico.org:2710/scrape
http://tracker.internetwarriors.net:1337/scrape
http://tracker.tiny-vps.com:6969/scrape
http://tracker.mg64.net:2710/scrape
http://tracker.coppersurfer.tk:6969/scrape
http://IPv6.leechers-paradise.org:6969/scrape
http://tracker.openbittorrent.com/scrape